#TITLE:Falco;
#SUBTITLE:;
#ARTIST:島谷ひとみ;
#TITLETRANSLIT:Falco;
#SUBTITLETRANSLIT:;
#ARTISTTRANSLIT:Shimatani Hitomi;
#CREDIT:Thu Sau , 16-1-2009;
#BANNER:Falco-bn.png;
#BACKGROUND:Falco-bg.png;
#LYRICSPATH:;
#CDTITLE:pm4cd.png;
#MUSIC:Falco.mp3;
#OFFSET:-0.160;
#SAMPLESTART:60.620;
#SAMPLELENGTH:20.000;
#SELECTABLE:YES;
#BPMS:0.000=137.960;
#STOPS:;
#BGCHANGES:;
// cache tags:
#FIRSTBEAT:12.000;
#LASTBEAT:482.000;
#SONGFILENAME:Songs/Music V.I.P ^_^/Falco/Falco.sm;
#HASMUSIC:1;
#HASBANNER:0;
#MUSICLENGTH:216.246;
// end cache tags

//---------------dance-single - ----------------
#NOTES:
     dance-single:
     :
     Hard:
     12:
     1.000,1.000,1.000,0.231,0.539,975.000,445.000,50.000,0.000,160.000:
0000
0000
0000
0000
,
0000
0000
0000
0000
,
0000
0000
0000
0000
,
1011
0100
1001
0010
1100
0001
1010
0101
,
1010
0000
1000
0100
0011
0000
0001
0010
1100
0000
1000
0100
0010
0001
0010
0100
,
1011
0100
0011
1000
0101
0010
1001
0110
,
1001
0010
0100
0010
1001
0100
0010
0100
1001
0010
1100
0010
1001
0100
0011
0100
,
1011
0100
1010
0001
0110
1000
0011
1100
,
0011
0000
0001
0100
1010
0000
1000
0010
0101
0000
0001
0010
0100
1000
0100
0010
,
1101
0010
1001
0010
1100
0001
1010
0101
,
1010
0100
0010
0001
1010
0100
0010
0001
1010
0100
1010
0001
1010
0100
1010
0001
,
2000
0100
0010
0000
0100
0010
0001
0000
,
0010
0100
0001
0000
0100
0000
0000
0000
,
3002
0000
1000
0100
0010
0100
1000
0100
,
1010
0000
0000
0100
0000
0000
0100
0000
0010
0100
1000
0100
0010
0100
1000
0100
,
1023
0100
0001
0000
0001
0100
1000
0000
,
0100
0001
1000
0000
0100
0000
0000
0000
,
0230
0000
0000
0010
1000
0010
0001
1000
,
0311
0000
0101
0000
0000
0001
0000
0000
0002
0000
0000
0100
0000
0000
1000
0000
,
1013
0100
1000
0101
0010
1000
0100
0000
,
0011
0000
1100
0000
0010
0000
0101
0000
1000
0000
0010
0100
0010
0001
0010
0100
,
1100
0000
0001
1010
0100
0010
0001
0010
,
1100
1100
0000
0011
0010
0100
1000
0100
,
0111
1000
0001
0110
0001
0010
1000
0000
,
0101
1010
0100
0011
1000
0100
0010
0001
,
0011
0000
0000
0000
0000
0000
1100
0000
0010
0000
0001
0000
0010
0000
0100
0100
,
2002
0000
0100
0000
0000
0100
0000
0000
0100
0000
0000
0000
0100
0000
0010
0000
,
3113
1000
0101
0010
1001
0010
0110
1001
,
1100
0001
0101
0010
1100
1001
0110
1010
,
0101
0010
1001
0100
0011
0100
1010
0110
,
0101
0001
1100
1000
0110
1001
1010
0110
,
0111
1000
1100
0001
1010
0100
1001
0011
,
0110
0001
1100
0100
0101
0110
1001
1010
,
0000
1101
1101
0000
0111
0111
0000
1110
,
1110
0000
1011
1011
0000
0000
0010
1100
,
1001
0010
0101
0100
0011
1000
0110
1001
,
1010
0100
1001
0010
0101
0110
0011
1100
,
1010
0001
0110
1000
1100
0010
0101
1100
,
0011
1000
1001
0010
0110
1001
0011
1100
,
1011
0100
1001
0010
0110
1000
1100
0101
,
1010
0100
1001
0010
1100
1010
0101
0110
,
1102
0010
1100
0100
1013
0100
0011
1001
,
0210
0001
1010
0010
2301
0110
0011
0101
,
3111
0110
1110
1010
1101
0110
1011
1100
,
0111
0111
0111
0000
1101
1101
1101
0000
1110
1110
1110
1110
1110
1110
1110
1110
,
1111
0010
1100
0001
1010
0100
0011
0110
,
1100
0000
0010
0100
1001
0000
0100
0010
1001
0000
0100
0010
0100
1000
0100
0010
,
1101
0010
0101
0010
1001
0100
1010
0101
,
1001
0000
0000
0000
0000
0000
0110
0000
0110
1000
0100
0010
0001
0010
0100
1000
,
0111
1000
0010
1001
0100
0010
0001
0000
,
0110
0000
1001
0000
0100
0000
0110
0000
0001
0000
1000
0100
1000
0100
0010
0001
,
0101
0010
1000
1010
0001
0100
1000
0100
,
0011
0011
0000
0110
0001
0010
0100
1000
,
1101
0010
0001
1010
0100
0001
0010
0000
,
1100
0011
1000
0110
0001
1000
0001
0010
,
1010
0000
0000
0000
0000
0000
0110
0000
0001
0000
0010
0000
1000
0000
1000
1000
,
0220
0000
0000
0000
,
1331
1000
0101
1000
0011
0100
1001
1100
,
0101
0010
1100
0001
0110
1010
1001
1100
,
0101
1000
0011
0100
1001
0010
1010
1100
,
1001
0010
0101
0010
1100
1001
0110
0011
,
1110
0100
1001
0010
1010
0100
0101
1010
,
0011
0100
1001
0010
1100
0101
0110
1001
,
0000
0111
0111
0000
1101
1101
0000
1011
,
1011
0000
0000
0000
1110
0000
1110
0000
0000
0000
0000
0000
0010
0000
1100
0001
,
1010
0100
0010
0001
0110
0001
1000
0100
0011
0100
1000
0001
0110
1000
0101
0010
,
1100
0001
0100
0010
1001
0100
0010
1000
0101
1000
0110
0001
1010
0100
0011
0100
,
1001
0100
0001
1000
0110
0001
1000
0010
1100
0001
0010
1000
0101
0010
1100
0001
,
0110
1000
0100
0010
1001
0100
0010
0001
0110
1000
0101
0010
1100
0001
0110
1000
,
0111
1000
0100
0010
1001
0100
0010
1000
0110
0001
1000
0010
1100
0010
0101
1000
,
0110
0001
0100
0010
1001
0010
1000
0010
1100
0001
1010
0100
0011
1000
0110
0001
,
2110
0001
0100
0010
0101
0010
0001
0100
3011
0100
0010
1000
0011
1000
0101
1000
,
0210
1000
0010
0001
1010
0001
1000
0010
2301
0010
0101
0010
0101
0010
0101
0010
,
3111
0101
1110
1100
1011
0011
1110
0110
,
1101
1101
1101
0000
0111
0111
0111
0000
1011
0000
0000
0000
0000
0000
0100
0000
,
1211
0000
0000
0000
0000
0000
0010
0000
0001
0000
0000
1000
0000
0000
0010
0000
,
1321
0000
1000
0100
0001
0100
0001
1000
0100
1000
0100
0001
0100
0001
1100
0001
,
2130
0000
0000
0000
0000
0000
0100
0000
0010
0000
0000
0001
0000
0000
0010
0000
,
3112
0010
0000
0100
0010
0000
0000
0000
,
1123
0000
0000
0000
0000
0000
0001
0000
0100
0000
0000
1000
0000
0000
0100
0000
,
1132
0010
0000
0010
1000
0000
1000
1010
,
2013
0000
0000
0000
0001
0010
0100
0010
0001
0010
0100
0010
0100
0001
0010
0100
0010
0001
0010
0001
0010
0101
0000
0000
,
3021
0000
1000
0000
0000
0000
1000
0000
0001
0000
0000
0100
0000
0000
1100
0000
,
2231
0000
0010
0001
0010
0000
0001
0010
0002
0000
0000
0010
0000
0000
0020
0000
,
0000
0000
0000
0000
0000
3333
0100
0010
,
1101
0010
1100
0001
0110
0100
1001
0110
,
1010
0100
0101
0010
1100
0011
0110
1010
,
0101
0010
1100
0100
0101
0010
1001
1010
,
1100
0001
0110
1000
0101
1010
1001
1100
,
1011
0001
0110
1000
1010
0100
0011
1100
,
1010
0100
1001
0010
0011
0110
1100
1001
,
0000
1110
1110
0000
1101
1101
0000
1011
,
1011
0000
0111
0111
0000
0000
0010
1001
,
1012
0000
0200
0000
,
2303
0000
0002
0000
,
3023
0000
0200
0000
,
0332
0000
0020
0000
,
1233
0000
0000
1000
2000
0000
0000
0000
,
3321
0000
0000
0000
2000
0000
0000
0100
,
3132
0000
0000
0100
0200
0000
0000
0000
,
2313
0000
0200
0000
,
3311
0110
1110
1001
1011
1100
1110
0011
,
1101
1101
1101
0000
1110
1110
1110
0000
1011
0000
0000
0100
0000
0000
1100
0001
,
1110
0001
0100
0001
1010
0001
0100
1000
0011
0100
1000
0010
0101
0010
1100
0001
,
1010
0100
0010
0001
1100
0010
1000
0001
0110
1000
0011
0100
1001
0010
1100
0001
,
1010
0100
0001
0010
1100
0010
0001
0100
1001
0010
0001
0100
1010
0100
1001
0010
,
0101
0010
0001
1000
0011
0100
1000
0001
1100
0001
1010
0001
0110
1000
0011
0100
,
1011
0100
0001
1000
0101
0010
1000
0100
0011
1000
0001
0100
1010
0001
0110
1000
,
0101
0010
1000
0100
1001
0010
0100
0010
0101
1000
0011
0100
1001
0010
0101
1000
,
0121
1000
0100
0001
1100
0001
1000
0100
1031
0100
1000
0001
1010
0100
1001
0010
,
2100
0010
0001
0100
0011
0100
0001
0010
3201
1000
0011
1000
0011
1000
0011
1000
,
1311
1100
1110
0101
0111
1001
1011
0110
,
1110
1110
1110
0000
0111
0111
0111
0000
1011
0000
0000
0000
0000
0000
0100
0000
,
1111
0000
0000
0000
0000
0001
0000
0000
0000
0000
0010
0000
0000
0000
0000
0100
0000
0000
0000
0000
1001
0000
0000
0000
0000
0100
0000
0000
0000
0000
0010
0000
,
0000
0000
0000
0000
0101
0000
0000
0000
0000
0011
0000
0000
0000
0000
0000
1000
0000
0000
0000
0000
0000
0100
0000
0000
0000
0000
0000
0000
0000
0001
0000
0000
,
0000
0000
0000
0011
0000
0000
0000
1000
0000
0000
0000
0000
0000
0101
0000
0000
,
0000
0001
0000
0222
,
0000
0000
0000
0000
0000
0000
0000
0000
0000
0000
0000
0000
0000
0000
0000
2000
,
0000
0000
0000
0000
,
0000
0000
0000
0000
,
0000
0000
3333
0000
;
